Skip to main content

Grace Potter and the Nocturnals Live at Ram's Head Onstage on 2005-08-04




Grace Potter & The Nocturnals
August 4, 2005
Rams Head Onstage
Annapolis MD

SOURCE: DSBD > edirol r4 (24/96)
PROCESSING: soundforge 8.0 (dither, resample, tracking) > shntool > flac 1.2.1b

DISK ONE

01 Long Way To Go
02 Take It To The Show
03 Ragged Company
04 Toothbrush And My Table
05 Stop The Bus
06 Dig Deep Down
07 Go Down Low
08 Left Behind > Lovers Lost And Found
09 Come And Go Blues (Allman Bros.)
10 Here's To The Meantime

DISK TWO

01 Grace chatter
02 I Ain't Changin' (S. Tournet)
03 Lake Charles (L. Williams)
04 My First Lover (G. Welch)
05 Nothing But The Water (I & II)
06 No Expectations (R. Stones)


Collection GracePotterandtheNocturnals
Band/Artist Grace Potter and the Nocturnals
Venue Ram's Head Onstage
Location Annapolis MD

Source DSBD > edirol r4 (24/96)
Lineage soundforge 8.0 (dither, resample, tracking) > shntool > flac 1.2.1b
Taped by Peter W. King
Transferred by Peter W. King

Notes

length expanded size cdr WAVE problems fmt ratio filename
4:45.45 50379884 B --- -- ---xx flac 0.4381 gracepotterandthenocturnals2005-08-04_dsbd_d1t01.flac
6:44.37 71352668 B --- -- ---xx flac 0.4434 gracepotterandthenocturnals2005-08-04_dsbd_d1t02.flac
5:21.15 56659724 B --- -- ---xx flac 0.4140 gracepotterandthenocturnals2005-08-04_dsbd_d1t03.flac
6:01.30 63751004 B --- -- ---xx flac 0.4024 gracepotterandthenocturnals2005-08-04_dsbd_d1t04.flac
7:47.60 82519964 B --- -- ---xx flac 0.5155 gracepotterandthenocturnals2005-08-04_dsbd_d1t05.flac
6:32.53 69273500 B --- -- ---xx flac 0.4783 gracepotterandthenocturnals2005-08-04_dsbd_d1t06.flac
4:28.37 47362268 B --- -- ---xx flac 0.3931 gracepotterandthenocturnals2005-08-04_dsbd_d1t07.flac
17:57.68 190142780 B --- -- ---xx flac 0.4052 gracepotterandthenocturnals2005-08-04_dsbd_d1t08.flac
6:27.52 68389148 B --- -- ---xx flac 0.4404 gracepotterandthenocturnals2005-08-04_dsbd_d1t09.flac
7:07.45 75428684 B --- -- ---xx flac 0.4737 gracepotterandthenocturnals2005-08-04_dsbd_d1t10.flac
1:42.08 18011660 B --- -- ---xx flac 0.3137 gracepotterandthenocturnals2005-08-04_dsbd_d2t01.flac
6:15.45 66255884 B --- -- ---xx flac 0.4926 gracepotterandthenocturnals2005-08-04_dsbd_d2t02.flac
4:58.30 52637804 B --- -- ---xx flac 0.3265 gracepotterandthenocturnals2005-08-04_dsbd_d2t03.flac
5:52.37 62179868 B --- -- ---xx flac 0.4006 gracepotterandthenocturnals2005-08-04_dsbd_d2t04.flac
16:06.30 170473004 B --- -- ---xx flac 0.4607 gracepotterandthenocturnals2005-08-04_dsbd_d2t05.flac
5:24.16 57191276 B --- -- ---xx flac 0.3992 gracepotterandthenocturnals2005-08-04_dsbd_d2t06.flac
113:34.08 1202009120 B 0.4341 (16 files)

Reviews

Reviewer: gsmaz1 - - April 21, 2013
Subject: This is spectacular !
Would love to see more of this period and quality on here....Thanks A million
DOWNLOAD OPTIONS
Uploaded by
peterwking
on 3/31/2013
Views
592
Reviews
1
PEOPLE ALSO FOUND
Grace Potter and the Nocturnals
by Grace Potter and the Nocturnals
909
0
1
( 1 reviews )
Source: schoeps mk4v (ORTF) > vms02ib > edirol r4 (24/96)
Grace Potter and the Nocturnals
by Grace Potter and the Nocturnals
591
0
1
( 1 reviews )
Source: DSBD > edirol r4 (24/96)
Grace Potter and the Nocturnals
by Grace Potter and the Nocturnals
231
1
0
Source: mbho 603a/ka100dk (omni, jecklin) > sound devices mp2 > busman t-mod edirol r4 (24/48)
Grace Potter and the Nocturnals
by Grace Potter and the Nocturnals
261
1
0
Source: mbho 603a/ka500hn > edirol r4 (24/96)
Grace Potter and the Nocturnals
by Grace Potter and the Nocturnals
1,931
1
0
Source: mbho 603a/ka100dk (omni, jecklin) > sound devices mp2 > busman t-mod edirol r4 (24/48)
Grace Potter and the Nocturnals
by Grace Potter and the Nocturnals
1,607
2
1
( 1 reviews )
Source: mbho 603a/ka500hn > edirol r4 (24/96)
Bonerama
by Bonerama
655
1
0
Source: mbho 603a/ka200n (cardioid, ORTF) > sound devices mp2 > t-mod edirol r4
The Brakes
by The Brakes
216
0
0
Source: mbho 603a/ka200n (cardioid, ORTF) > sound devices mp2 > busman t-mod edirol r4 (24/96)
Hot Buttered Rum
by Hot Buttered Rum
925
1
1
( 1 reviews )
Source: mbho 603a/ka200n (card, ORTF) > mp2 > busman t-mod edirol r4 (24/96)
Ryan Montbleau
by Ryan Montbleau
34
0
0
Source: Neumann U89i (subcard, NOS, -80h)> Lunatec V2> Apogee Minime> Tascam HD-P2 (16/44.1)